<?xml version="1.0" standalone="no"?>
<!DOCTYPE svg PUBLIC "-//W3C//DTD SVG 1.1//EN" "http://www.w3.org/Graphics/SVG/1.1/DTD/svg11.dtd" >
<svg xmlns="http://www.w3.org/2000/svg">
<metadata>Generated by IcoMoon</metadata>
<defs>
<font id="icomoon" horiz-adv-x="1024">
<font-face units-per-em="1024" ascent="960" descent="-64" />
<missing-glyph horiz-adv-x="1024" />
<glyph unicode="&#x20;" horiz-adv-x="512" d="" />
<glyph unicode="&#xe900;" glyph-name="1" d="M1011.849 6.952l-214.010 214.010c65.001 78.205 104.203 178.611 104.203 288.016-0.199 248.612-202.405 451.022-451.020 451.022-248.612 0-451.022-202.41-451.022-451.022 0-248.615 202.41-451.020 451.022-451.020 109.405 0 209.811 39.202 288.016 104.203l214.010-214.010c8.198-8.203 18.802-12.203 29.4-12.203s21.202 3.999 29.4 12.203c16.202 16.202 16.202 42.604 0 58.8zM83.204 508.978c0 202.81 165.008 367.618 367.618 367.618s367.615-165.008 367.615-367.618c0-202.609-165.006-367.621-367.615-367.621s-367.618 165.012-367.618 367.621z" />
<glyph unicode="&#xe901;" glyph-name="2" horiz-adv-x="1877" d="M85.333 512c-35.346 0-64-28.654-64-64s28.654-64 64-64v128zM1837.252 402.745c24.994 24.993 24.994 65.516 0 90.51l-407.287 407.293c-24.994 24.994-65.519 24.994-90.513 0s-24.994-65.516 0-90.51l362.035-362.039-362.035-362.035c-24.994-24.994-24.994-65.519 0-90.513s65.519-24.994 90.513 0l407.287 407.293zM85.333 384h1706.667v128h-1706.667v-128z" />
<glyph unicode="&#xe902;" glyph-name="3" horiz-adv-x="1877" d="M1792 512c35.345 0 64-28.654 64-64s-28.655-64-64-64v128zM40.078 402.745c-24.993 24.993-24.993 65.516 0 90.51l407.294 407.293c24.993 24.994 65.516 24.994 90.51 0s24.993-65.516 0-90.51l-362.039-362.039 362.039-362.035c24.993-24.994 24.993-65.519 0-90.513s-65.516-24.994-90.51 0l-407.294 407.293zM1792 384h-1706.667v128h1706.667v-128z" />
<glyph unicode="&#xe903;" glyph-name="4" horiz-adv-x="1593" d="M915.9 163.542l676.989 676.991-119.467 119.467-676.989-676.991-676.966 676.967-119.467-119.467 796.447-796.448 119.453 119.481z" />
<glyph unicode="&#xe904;" glyph-name="5" horiz-adv-x="1408" d="M64 512c-35.346 0-64-28.654-64-64s28.654-64 64-64v128zM1389.254 402.745c24.992 24.994 24.992 65.516 0 90.509l-407.296 407.294c-24.992 24.994-65.51 24.994-90.509 0-24.992-24.994-24.992-65.516 0-90.51l362.042-362.038-362.042-362.042c-24.992-24.992-24.992-65.51 0-90.509 24.998-24.992 65.517-24.992 90.509 0l407.296 407.295zM64 384h1280v128h-1280v-128z" />
<glyph unicode="&#xe905;" glyph-name="6" d="M1024 582.4l-371.2 25.6-140.8 352-140.8-352-371.2-25.6 288-243.2-96-364.8 320 204.8 320-204.8-96 364.8 288 243.2z" />
<glyph unicode="&#xe906;" glyph-name="7" d="M1024 582.4l-371.2 25.6-140.8 352-140.8-352-371.2-25.6 288-243.2-96-364.8 320 204.8 320-204.8-96 364.8 288 243.2zM512 249.6l-224-140.8 64 256-198.4 172.8 262.4 19.2 96 243.2 96-249.6 262.4-19.2-198.4-172.8 64-256-224 147.2z" />
<glyph unicode="&#xe907;" glyph-name="8" horiz-adv-x="1455" d="M1511.335 638.612c-189.753 189.75-441.662 294.44-709.931 294.44-271.541 0-523.45-104.69-713.201-294.44-9.815-9.814-9.815-26.174 0-35.988s26.173-9.814 35.987 0c183.206 179.936 422.033 278.084 677.214 278.084 255.183 0 494.007-98.147 673.943-278.084 6.543-6.543 13.086-6.543 19.628-6.543 6.546 0 13.088 3.271 19.631 6.543 6.543 9.814 6.543 26.174-3.271 35.988zM241.966 484.848c-9.815-9.814-9.815-26.171 0-35.988 6.543-6.543 13.086-6.543 19.629-6.543s13.087 3.271 19.63 6.543c287.898 287.899 752.459 287.899 1040.357 0 9.814-9.814 26.174-9.814 35.988 0 9.814 9.817 9.814 26.174 0 35.988-307.529 307.527-808.076 307.527-1115.604 0zM801.404 497.933c-153.762 0-294.44-58.888-402.402-166.847-9.814-9.817-9.814-26.174 0-35.988s26.174-9.814 35.988 0c98.148 98.148 229.010 150.493 366.414 150.493 137.407 0 268.269-52.345 366.417-150.493 6.543-6.543 13.086-6.543 19.628-6.543s13.086 3.271 19.631 6.543c9.814 9.814 9.814 26.171 0 35.988-111.233 107.959-255.183 166.847-405.676 166.847zM801.404 252.567c-94.876 0-170.121-78.517-170.121-170.121 0-94.876 78.519-170.121 170.121-170.121 94.876 0 170.121 78.517 170.121 170.121s-75.245 170.121-170.121 170.121zM801.404-38.602c-65.431 0-117.776 52.345-117.776 117.776s52.345 117.776 117.776 117.776c65.431 0 117.776-52.345 117.776-117.776s-52.345-117.776-117.776-117.776z" />
<glyph unicode="&#xe908;" glyph-name="9" horiz-adv-x="983" d="M103.345 574.362c-1.219-143.89 24.998-339.3 156.694-454.535 16.462-14.328 36.583-23.474 57.922-26.827 49.388-7.928 99.078-11.891 149.074-11.891s99.686 3.963 149.072 11.891c60.363 10.060 98.773 66.458 130.173 113.099 92.066 23.779 228.030 119.503 229.859 206.082 2.439 75.907-89.321 87.798-147.548 82.614 1.829 27.742 2.742 54.569 2.437 79.872-0.303 67.371-162.791 91.15-232.602 98.163-10.060 0.913-18.596-6.402-19.816-16.462-0.913-10.062 6.099-18.901 16.159-20.122 141.146-14.328 199.678-47.251 199.678-61.884 0-23.169-115.54-67.983-327.107-67.983-211.569 0-327.107 45.119-327.107 67.983 0 15.243 61.275 49.080 208.52 62.8 10.060 1.219 17.070 10.060 16.157 19.814-0.915 10.060-9.755 17.377-19.511 16.462-72.86-6.402-241.443-29.266-242.053-99.076zM929.19 440.226c46.338-59.445-78.346-154.255-157.303-187.179 28.656 64.934 46.946 134.136 53.654 204.861 48.472 3.963 86.579-2.439 103.649-17.682zM467.339 469.797c127.734 0 262.783 17.377 326.496 54.874-5.181-128.649-36.276-283.513-143.28-377.407-11.28-9.757-24.998-16.159-39.936-18.293-94.808-15.241-191.447-15.241-286.56 0-14.938 2.439-28.658 8.841-39.936 18.598-107.004 93.59-138.099 248.453-143.281 377.102 63.714-37.497 198.459-54.874 326.497-54.874zM482.583-64c294.486-3.658 613.059 121.027 428.012 281.684-7.926 5.792-19.204 4.268-25.301-3.658-6.099-7.928-4.573-19.206 3.353-25.303 143.28-113.406-132.307-216.75-406.063-215.837-294.793-1.219-591.415 120.113-366.434 240.224 8.841 4.573 12.194 15.548 7.621 24.388s-15.243 12.499-24.388 8.231c-64.933-33.534-99.382-74.383-99.382-118.587 0-107.307 211.872-191.142 482.583-191.142zM412.77 607.285c-5.792-8.231-3.963-19.511 3.963-25.303s19.206-4.268 25.303 3.658c20.425 27.742 46.338 91.763-2.439 135.66-36.276 32.621 0.61 86.274 2.744 88.713 5.792 8.231 3.658 19.511-4.268 25.303-8.231 5.792-19.206 3.963-25.303-3.963-20.425-28.351-46.033-93.589 2.744-137.488 36.276-32.315-1.221-84.445-2.744-86.579zM534.102 728.617c-5.792-8.231-3.963-19.511 3.963-25.303s19.206-4.268 25.303 3.658c20.425 27.437 46.338 91.456-2.439 135.66-36.581 32.924 0.915 86.273 2.744 88.712 5.792 8.231 3.658 19.511-4.268 25.303-8.231 5.792-19.206 3.963-25.303-3.963-20.425-28.351-46.033-93.59 2.744-137.489 35.971-32.619-1.221-84.444-2.744-86.578z" />
<glyph unicode="&#xe909;" glyph-name="10" horiz-adv-x="1094" d="M1092.266 436.694h-864.639v386.772c0 50.347 40.748 91.093 91.093 91.093s91.094-40.747 91.094-91.093v-40.747c-64.64-11.307-113.708-70.4-113.708-141.44v-22.614h273.068v22.828c0 71.040-49.28 129.919-113.708 141.439v40.533c0 75.307-61.226 136.533-136.532 136.533-75.308 0-136.534-61.227-136.534-136.533v-386.772h-182.4v-45.44h68.267v-182.188c0.213-117.972 89.813-214.826 204.799-226.346v-46.72h45.44v45.44h455.040v-45.44h45.654v46.72c114.986 11.52 204.586 108.374 204.8 226.346v181.974h68.266v45.654zM521.174 664.106h-177.28c9.386 42.88 45.866 75.094 88.746 75.094s78.72-32 88.534-75.094zM978.56 209.066c-0.214-100.48-81.494-181.972-181.974-181.972h-500.692c-100.481 0.212-181.974 81.492-181.974 181.972v181.974h864.64v-181.974z" />
<glyph unicode="&#xe90a;" glyph-name="11" horiz-adv-x="1482" d="M1455.158 715.061c-18.098 40.622-58.721 66.765-102.963 66.765h-94.518c-25.74-3.218-48.664-18.099-62.34-39.818l-68.374 112.213c-40.623 65.559-111.813 105.779-189.033 106.181h-415.070c-77.223-0.402-148.413-40.622-189.033-106.181l-68.375-112.616c-14.077 22.523-37.807 37.002-63.95 40.22h-92.908c-44.644 0-84.864-26.545-102.963-67.167-7.642-17.697-7.24-38.209 1.207-55.906 8.446-17.295 24.534-30.165 43.438-34.991l95.724-24.131c-57.917-47.46-90.897-118.649-89.691-193.056v-205.123c0-44.239 23.328-83.655 58.319-106.181v-96.525c0-34.59 28.154-62.744 63.145-62.744h126.693c34.59 0 62.744 28.155 63.146 62.744v63.949c120.66-6.435 241.721-10.054 362.383-10.054 121.864 0 243.329 3.218 364.39 10.054v-63.949c0-34.59 28.155-62.744 62.744-62.744h126.693c34.59 0 62.742 28.155 62.742 62.744v100.549c31.776 22.924 52.69 60.33 52.69 102.157v205.926c0.803 72.397-29.362 141.978-82.855 191.046l-1.609 1.207 96.127 24.131c29.362 7.238 50.276 33.784 50.276 64.35-0.402 9.252-2.414 18.502-6.034 26.949zM325.379-1.256c0-11.666-9.653-21.318-21.315-21.318h-126.694c-11.664 0-21.316 9.251-21.316 21.318v79.635c4.826-0.806 9.653-1.609 14.479-2.414 51.482-4.422 102.965-8.044 154.846-11.261v-65.959zM1304.735-1.256c0-11.666-9.653-21.318-21.315-21.318h-126.693c-11.666 0-21.318 9.653-21.318 21.318v66.361c49.874 3.218 99.344 6.839 148.814 10.86 6.837 0.806 13.676 2.013 20.111 3.622v-80.842h0.402zM1400.862 664.382l-143.586-36.196c-20.512-5.23-21.315-33.787-1.207-40.222 12.067-4.826 23.328-12.064 32.579-20.914 44.644-41.025 69.982-98.94 68.775-159.674v-205.926c0-30.165-16.088-57.112-40.62-71.993-1.609-0.803-2.816-1.207-4.023-2.412-9.653-5.23-20.111-8.448-31.774-9.655-310.094-26.142-621.398-30.165-931.495-12.466-1.205 0-2.412 0.402-3.619 0.402-57.112 3.218-114.627 7.238-171.739 12.064-7.642 0.806-14.881 2.414-21.719 4.826-4.022 5.632-10.457 8.448-16.892 8.448-22.925 15.282-37.807 41.025-37.807 69.982v205.121c-1.207 67.972 30.969 131.519 85.668 170.132 7.24 5.228 14.881 9.251 23.328 12.87 18.903 7.642 16.892 34.59-2.815 39.817l-143.988 36.198c-6.837 1.609-12.87 6.435-15.686 12.87-3.218 6.435-3.218 14.077-0.402 20.512 11.262 25.339 36.6 41.829 64.754 41.829h90.495c3.62-0.402 34.589-5.229 40.622-49.068 2.815-19.306 28.154-24.935 38.612-8.044l90.896 149.216c32.981 53.492 90.896 86.071 153.239 86.071h415.068c62.744-0.402 120.662-32.98 153.239-86.071l91.702-149.216c10.054-16.891 35.797-11.261 38.61 8.044 6.034 43.84 37.004 48.666 38.613 49.068h92.505c27.753 0 53.092-16.49 64.755-41.829 1.609-3.218 2.010-6.837 2.412-10.056-0.402-11.261-7.64-20.914-18.499-23.73zM386.514 579.519h688.163c14.077 0 26.947 7.241 33.784 19.305 7.241 12.067 7.241 26.947 0.404 39.014l-85.671 152.433c-19.305 34.589-55.905 55.906-95.321 55.906h-394.558c-39.413 0-76.016-21.316-95.321-55.906l-85.668-152.032c-6.837-12.067-6.837-26.947 0.404-39.014 6.837-12.064 19.707-19.707 33.784-19.707zM474.193 770.162c12.067 21.316 34.59 34.589 59.123 34.589h394.558c24.536 0 47.058-13.273 59.125-34.589l83.655-148.815h-680.119l83.658 148.815zM902.133 408.986h-342.272c-18.904 0-36.6-8.847-47.861-24.131s-14.88-34.59-9.251-52.687l11.666-39.014c7.238-24.934 30.165-42.229 56.307-41.828h320.957c26.142 0 49.066 17.295 56.307 42.229l11.663 39.014c5.23 18.101 2.013 37.807-9.248 52.687-11.666 14.883-29.362 23.73-48.265 23.73zM919.428 344.231l-11.663-39.012c-2.013-7.241-8.85-12.067-16.492-12.067h-320.954c-7.642 0-14.077 4.826-16.492 12.067l-11.663 39.012c-3.218 11.666 5.228 23.328 17.295 23.328h342.272c12.469-0.402 21.315-11.663 17.696-23.328zM432.767 333.775c-18.098 65.962-70.384 117.041-136.747 133.53l-12.469 3.622c-7.241 1.609-14.48 2.813-21.719 2.813-41.427-0.402-77.625-27.75-88.886-67.166-6.435-22.523-3.62-46.654 8.044-66.765 11.664-20.512 30.969-34.991 53.492-41.025l148.009-40.623c4.023-1.205 8.044-1.609 12.067-1.609 14.077 0 27.75 6.839 36.198 18.101 8.445 11.261 11.261 26.142 7.642 39.817l-5.632 19.305zM393.351 297.979l-148.411 40.623c-11.664 3.218-21.719 10.86-27.752 21.318-6.033 10.456-7.642 23.326-4.022 34.991 6.033 21.717 26.143 37.001 48.666 37.001 4.022 0 7.642-0.402 11.665-1.609l12.064-3.619c51.884-12.873 92.909-53.092 107.388-104.572l5.228-19.709c0.806-2.412-2.010-4.826-4.826-4.425zM1176.032 470.523l-10.458-3.218c-66.363-16.489-119.051-67.972-137.553-133.931l-5.228-19.709c-3.619-13.673-0.803-28.556 7.642-39.817s22.121-18.098 36.198-18.098c4.021 0 8.044 0.402 12.064 1.609l148.011 40.62c22.523 6.034 41.828 20.917 53.491 41.025 11.666 20.512 14.482 44.644 8.046 66.765-11.264 39.817-47.864 67.169-88.889 67.571-8.044 0.402-15.683-0.803-23.326-2.816zM1248.024 394.911c3.218-11.666 2.010-24.134-4.021-34.994-6.034-10.456-16.090-18.098-27.753-21.315h-0.402l-148.008-40.623c-1.207-0.402-2.816 0-4.023 1.207-1.207 0.806-1.609 2.414-1.207 4.023l5.632 19.707c14.479 51.884 55.905 91.702 108.191 104.572l10.054 2.816c4.023 1.207 8.448 1.609 12.87 1.609 22.525 0 42.633-15.285 48.667-37.001z" />
<glyph unicode="&#xe90b;" glyph-name="12" horiz-adv-x="1229" d="M887.357 463.981c37.134 0 70.922 14.307 97.405 40.788 53.266 53.268 53.266 141.541 0 194.808-26.483 26.483-60.271 40.788-97.405 40.788s-70.922-14.305-97.405-40.788c-53.266-53.266-53.266-141.539 0-194.808 24.961-26.786 60.271-40.788 97.405-40.788zM814.914 672.791c19.481 19.481 44.136 30.134 72.749 30.134 26.481 0 53.266-10.654 72.747-30.134 40.788-40.788 40.788-104.405 0-145.193-19.481-19.481-45.961-30.134-72.747-30.134-26.483 0-53.268 10.654-72.749 30.134-40.788 40.788-40.788 106.232 0 145.193zM58.509 332.79c40.788 0 60.269-12.481 81.576-26.483 23.133-14.305 49.615-31.961 101.057-31.961s77.922 17.656 101.057 31.961c23.134 14.307 40.788 26.483 81.576 26.483s60.269-12.481 81.576-26.483c23.134-14.305 49.615-31.961 101.057-31.961s77.924 17.656 101.057 31.961c23.134 14.307 40.788 26.483 81.576 26.483s60.269-12.481 81.576-26.483c23.134-14.305 49.615-31.961 101.057-31.961s77.924 17.656 101.057 31.961c23.134 14.307 40.788 26.483 81.576 26.483 10.654 0 17.656 7 17.656 17.654s-7.002 17.654-17.656 17.654c-51.442 0-77.922-17.654-101.057-31.959-23.132-14.307-40.788-26.483-81.576-26.483s-60.269 12.481-81.576 26.483c-12.478 7-24.656 15.827-42.615 21.307 0 1.825-1.825 3.652-3.652 5.173l-299.213 301.040 118.71 118.712c31.961 31.961 31.961 81.576 0 113.232-14.914 16.437-36.221 23.438-57.528 23.438s-40.788-8.827-56.617-23.133l-180.5-185.982c-24.656-24.654-24.656-63.617 0-88.576l111.71-111.71-194.81-191.459c-12.478-3.654-24.654-7.002-44.136-7.002-40.787 0-60.268 12.481-81.575 26.483-23.133 14.305-49.615 31.961-101.057 31.961-10.653 0-17.655-7.002-17.655-17.656s6.697-19.175 17.35-19.175zM517.22 499.29c3.654 3.652 5.175 7 5.175 12.478-1.827 5.175-3.652 8.829-5.175 12.481l-123.886 123.886c-5.173 5.175-7 12.481-7 19.481 0 7.002 3.652 14.307 7 19.481l184.156 184.155c8.827 8.827 19.481 12.48 31.959 12.48 12.481 0 23.134-5.175 31.961-12.48 17.654-17.655 17.654-45.963 0-62.095l-131.191-131.19c-7-7.002-7-17.656 0-24.656l283.386-283.386c0 0 0 0-1.827 0-51.442 0-77.924-17.654-101.057-31.961-23.134-14.305-40.788-26.481-81.576-26.481s-60.269 12.481-81.576 26.481c-23.134 14.307-49.615 31.961-101.057 31.961-17.656 0-31.961-1.827-44.136-5.173l134.842 134.539zM1153.087 219.558c-51.442 0-77.924-17.656-101.057-31.961s-40.788-26.483-81.576-26.483-60.269 12.481-81.576 26.483c-23.134 14.305-49.615 31.961-101.057 31.961s-77.924-17.656-101.057-31.961c-23.134-14.305-40.788-26.483-81.576-26.483s-60.271 12.481-81.576 26.483c-23.134 14.305-49.617 31.961-101.057 31.961-51.442 0-77.924-17.656-101.059-31.961-23.132-14.305-40.788-26.483-81.576-26.483s-60.268 12.481-81.575 26.483c-23.133 14.305-49.615 31.961-101.057 31.961-10.653 0-17.655-7.002-17.655-17.656 0-10.652 7.001-17.654 17.655-17.654 40.788 0 60.269-12.481 81.576-26.481 23.133-14.307 49.615-31.961 101.056-31.961 51.442 0 77.924 17.654 101.059 31.961 23.132 14.305 40.788 26.481 81.576 26.481s60.269-12.481 81.574-26.481c23.134-14.307 49.617-31.961 101.059-31.961s77.922 17.654 101.057 31.961c23.132 14.305 40.788 26.481 81.576 26.481s60.269-12.481 81.576-26.481c23.132-14.307 49.615-31.961 101.057-31.961s77.922 17.654 101.057 31.961c23.134 14.305 40.788 26.481 81.576 26.481 10.654 0 17.654 7.002 17.654 17.654 0 10.654-7 17.656-17.654 17.656zM1153.087 70.711c-51.442 0-77.924-17.654-101.057-31.961-23.134-14.305-40.788-26.481-81.576-26.481s-60.269 12.478-81.576 26.481c-23.134 14.307-49.615 31.961-101.057 31.961s-77.924-17.654-101.057-31.961c-23.134-14.305-40.788-26.481-81.576-26.481s-60.271 12.478-81.576 26.481c-23.134 14.307-49.617 31.961-101.057 31.961-51.442 0-77.924-17.654-101.059-31.961-23.132-14.305-40.788-26.481-81.576-26.481s-60.268 12.478-81.575 26.481c-23.133 14.307-49.615 31.961-101.057 31.961-10.653 0-17.655-7-17.655-17.654s7.001-17.656 17.655-17.656c40.788 0 60.269-12.478 81.576-26.481 23.133-14.307 49.615-31.961 101.056-31.961 51.442 0 77.924 17.654 101.059 31.961 23.132 14.305 40.788 26.481 81.576 26.481s60.269-12.478 81.574-26.481c23.134-14.307 49.617-31.961 101.059-31.961s77.922 17.654 101.057 31.961c23.132 14.305 40.788 26.481 81.576 26.481s60.269-12.478 81.576-26.481c23.132-14.307 49.615-31.961 101.057-31.961s77.922 17.654 101.057 31.961c23.134 14.305 40.788 26.481 81.576 26.481 10.654 0 17.654 7.002 17.654 17.656s-7 17.654-17.654 17.654z" />
<glyph unicode="&#xe90c;" glyph-name="13" horiz-adv-x="799" d="M724.113 960h-650.971c-40.229 0-73.143-32.914-73.143-73.143v-877.715c0-40.532 32.914-73.142 73.143-73.142h650.971c40.229 0 73.144 32.913 73.144 73.142v877.715c0 40.229-32.61 73.143-73.144 73.143zM73.143 923.429h650.971c20.115 0 36.573-16.457 36.573-36.572v-111.848h-724.115v111.848c0 20.114 16.457 36.572 36.572 36.572zM724.113-27.429h-650.971c-20.114 0-36.572 16.458-36.572 36.571v729.295h724.115v-729.295c0-20.113-16.153-36.571-36.573-36.571zM111.238 831.086h253.256c10.058 0 17.981 8.228 17.981 18.286s-7.924 18.286-17.981 18.286h-253.256c-10.057 0-17.981-8.228-17.981-18.286s7.924-18.286 17.981-18.286zM522.971 819.505c16.153 0.305 29.258 13.409 29.258 29.562s-13.105 29.562-29.258 29.562c-16.153-0.305-29.258-13.41-29.258-29.562s13.105-29.257 29.258-29.562zM398.629 604.953c-141.105 0-255.391-114.287-255.391-255.39 13.409-336.153 491.886-340.115 510.781-4.573 1.219 68.573-25.295 134.705-73.142 183.468-48.153 49.066-113.676 76.495-182.247 76.495zM398.629 568.381c110.019-0.305 202.971-81.981 216.99-191.392-42.363 26.21-96.61 24.687-137.447-3.656-31.087-22.247-72.839-22.247-103.924 0-42.971 29.866-99.963 29.866-143.239 0-14.629-11.276-32.609-17.068-51.199-16.763 4.267 117.942 100.876 211.81 218.82 211.81zM398.629 130.437c-109.41 0.305-202.058 81.068-216.687 189.563 62.476-0.305 64.61 38.095 120.99 39.313 18.592 0.305 36.876-5.485 51.81-16.761 42.971-29.866 100.266-29.866 143.237 0 31.087 22.553 72.839 22.553 103.924 0 4.573-3.047 9.753-6.095 15.239-8.839-8.534-114.285-103.619-202.971-218.513-203.276z" />
<glyph unicode="&#xe90d;" glyph-name="14" horiz-adv-x="1219" d="M476.428 597.619c9.287 9.287 9.287 24.286 0 33.573-9.284 9.284-24.286 9.284-33.57 0-9.287-9.287-9.287-24.286 0-33.573 9.048-9.284 24.286-9.284 33.57 0zM442.619 227.143c-9.287-9.287-9.287-24.286 0-33.57 9.287-9.287 24.286-9.287 33.573 0 9.284 9.284 9.284 24.283 0 33.57-9.048 9.287-24.286 9.287-33.573 0zM409.047 530.237c9.287 9.287 9.287 24.286 0 33.573-9.284 9.287-24.286 9.287-33.57 0l-100.952-100.952c-9.287-9.287-9.287-24.286 0-33.573 9.284-9.284 24.286-9.284 33.57 0l100.952 100.952zM610.953 395.476l-100.952-100.952c-9.287-9.287-9.287-24.286 0-33.573 9.284-9.284 24.286-9.284 33.57 0l100.952 100.954c9.287 9.284 9.287 24.283 0 33.57-9.045 9.287-24.283 9.287-33.57 0zM610.953 563.81c-9.287 9.287-24.286 9.287-33.573 0l-269.285-269.285c-9.284-9.287-9.284-24.286 0-33.573 9.287-9.284 24.286-9.284 33.573 0l269.285 269.285c9.287 9.287 9.287 24.286 0 33.573zM1074.525 880c-88.096 51.667-202.62 80-322.143 80h-316.667c-1.904 0-3.572-0.238-5.239-0.476-239.761-9.524-430.475-133.809-430.475-285.239 0-64.285 33.81-126.427 95.238-176.189v-419.048c0-65.714 53.333-119.047 119.048-119.047h790.475c65.714 0 119.050 53.333 119.050 119.047v419.048c61.428 49.762 95.237 112.143 95.237 176.189 0 78.335-51.19 151.43-144.523 205.716zM776.19 509.762v-430.714c0-39.285-32.141-71.429-71.429-71.429h-490.475c-39.286 0-71.428 32.144-71.428 71.429v430.714c0 7.38-3.572 14.524-9.524 19.049-39.048 29.523-85.714 78.809-85.714 145.713 0 128.81 188.572 237.858 411.906 237.858 223.332 0 411.904-109.048 411.904-238.097 0-66.904-46.668-116.19-85.714-145.713-5.954-4.525-9.526-11.43-9.526-18.81zM1085.713 528.572c-5.951-4.525-9.523-11.43-9.523-19.049v-430.475c0-39.285-32.141-71.429-71.429-71.429h-204.761c14.999 20 23.81 44.761 23.81 71.429v419.048c61.428 49.762 95.237 112.143 95.237 176.189 0 99.287-81.905 186.906-205.714 238.097h39.049c109.524 0 218.334-26.667 298.094-73.571 78.097-45.476 120.954-103.81 120.954-164.525 0-66.904-46.668-116.19-85.716-145.713z" />
<glyph unicode="&#xe90e;" glyph-name="15" horiz-adv-x="819" d="M678.666 232.8c-37.067 21.6-78.666 38.666-122.933 50.665 2.666 0.801 5.067 1.335 7.467 2.134 64 18.401 96.532 49.066 96.532 90.933 0 40.8-34.398 85.6-91.732 119.468-11.201 6.666-22.934 12.532-34.935 18.133 31.734 2.933 59.202 7.733 81.867 14.133 56.267 15.733 84.802 42.4 84.802 78.932 0 36-29.334 73.335-80.267 102.668-24.799 14.133-52.533 25.332-81.867 33.065 34.666 20.801 42.134 49.068 42.134 69.334 0.266 66.667-80.001 147.733-179.735 147.733-99.731 0-179.999-81.067-179.999-148 0-26.133 11.999-64.8 77.066-84.534-12.8-5.333-25.068-11.198-36.801-17.867-50.932-29.334-80.266-66.666-80.266-102.666 0-32.532 22.667-57.065 67.2-73.333-6.134-4.801-9.333-12.8-7.199-20.799 2.666-10.668 13.599-17.334 24.265-14.668 31.201 7.733 63.468 11.733 95.734 11.733 67.201 0 135.467-17.598 187.734-48.534 43.733-25.866 72.266-59.466 72.266-85.066 0-44.534-99.734-72.266-260-72.266s-260 27.732-260 72.266c0 12.534 6.667 26.933 19.2 42.134 7.2 8.534 5.867 21.066-2.4 28.266-8.533 7.201-21.067 5.868-28.266-2.4-18.667-22.133-28.533-45.601-28.533-67.734 0-41.867 32.533-72.532 96.533-90.933 16.533-4.801 34.933-8.534 55.467-11.733-32.267-10.934-62.667-24.533-90.667-40.8-76-44.265-121.333-101.865-121.333-154.132 0-52.533 42.4-91.202 125.867-114.668 66.4-18.665 158.666-28.266 274.132-28.266 115.468 0 207.735 9.601 274.135 28.266 83.466 23.466 125.866 62.134 125.866 114.668 0 52.267-45.332 109.867-121.334 153.866zM260 812c0 42.4 60 108 139.999 108 80.001 0 140.001-65.6 140.001-108 0-51.467-97.868-56.8-140.001-56.8-42.131-0.266-139.999 5.333-139.999 56.8zM220 606.933c0 20.267 23.732 46.934 60.266 68 44.534 25.6 102.666 40.268 159.734 40.268 57.065 0 115.2-14.668 159.734-40.268 36.532-21.066 60.266-47.733 60.266-68 0-20.533-30.401-33.333-55.734-40.534-38.666-10.666-95.468-16.531-164.266-16.531-68.801 0-125.868 5.599-164.268 16.531-25.332 7.201-55.732 20.001-55.732 40.534zM663.2 2.666c-62.933-17.867-151.466-26.667-263.201-26.667-111.733 0-200.266 9.066-263.199 26.667-64.267 18.133-96.8 43.999-96.8 76.268 0 37.333 38.934 82.932 101.333 119.2 72.001 41.867 166.399 65.866 258.666 65.866 92.269 0 186.667-23.998 258.669-65.866 62.398-36.268 101.333-81.867 101.333-119.2 0-32.268-32.535-58.135-96.801-76.268zM175.2 465.867c10.933 0 20 9.066 20 20.001 0 10.932-9.067 19.999-20 19.999s-20-9.066-20-19.999c0-10.934 8.8-20.001 20-20.001z" />
<glyph unicode="&#xe90f;" glyph-name="16" horiz-adv-x="1065" d="M1028.254 388.917h-38.58v77.156c0 4.557-1.823 8.81-4.86 12.456l-53.766 57.715c10.328 19.442 9.114 44.349-5.771 62.577l-26.124 32.807c-19.745 24.605-55.894 28.858-80.499 9.114-12.151-9.722-19.442-23.39-21.264-38.58-1.823-15.188 2.431-30.073 12.151-42.224l26.124-32.807c11.239-14.277 27.947-21.567 44.958-21.567 8.202 0 16.404 1.823 24.302 5.468l48.603-52.247v-69.868h-201.095v143.075c0 5.163-2.126 10.328-6.074 13.668l-63.183 55.286c0 0 0 0-0.305 0.303l-37.364 38.275c26.733 29.161 43.135 67.74 43.44 110.572v46.78c0 89.915-73.208 163.123-163.123 163.123s-163.123-73.208-163.123-163.123v-46.78c0-41.312 15.491-79.282 41.007-108.141l-39.49-40.706c-0.303-0.303-0.606-0.606-0.911-0.911l-62.271-54.678c-3.949-3.34-6.074-8.505-6.074-13.668v-143.075h-181.654v69.868l48.603 52.247c7.594-3.645 15.796-5.468 24.301-5.468 2.126 0 4.253 0.305 6.683 0.608 15.189 1.823 28.857 9.417 38.579 21.264l26.124 32.807c9.417 11.846 13.974 27.036 12.151 42.224s-9.417 28.856-21.264 38.578c-11.848 9.417-27.036 13.668-42.224 12.151-15.188-1.823-28.858-9.417-38.579-21.264l-26.124-32.807c-14.581-18.53-16.1-43.135-5.772-62.577l-53.767-57.715c-3.038-3.342-4.86-7.899-4.86-12.454v-77.462h-58.931c-10.024 0-18.226-8.202-18.226-18.225v-112.699c0-10.023 8.202-18.225 18.226-18.225h69.563l81.106-290.402c2.126-7.897 9.417-13.365 17.619-13.365h675.578c8.202 0 15.19 5.165 17.619 13.062l83.233 290.705h65.311c10.023 0 18.225 7.897 18.225 18.225v112.699c0 10.023-8.202 18.225-18.225 18.225zM877.887 542.321c-5.771 0.606-10.631 3.34-13.974 7.897l-26.124 32.807c-3.34 4.254-4.86 9.72-4.252 15.188 0.608 5.771 3.34 10.633 7.897 13.974 3.951 3.037 8.505 4.557 13.062 4.557 6.076 0 12.151-2.734 16.404-7.897l26.124-32.807c7.289-8.81 5.771-22.176-3.342-29.467-4.86-3.34-10.328-4.86-15.796-4.252zM169.806 576.039l26.124 32.807c3.342 4.252 8.506 6.986 13.974 7.594 5.468 0.606 11.239-0.911 15.188-4.254 4.254-3.34 6.986-8.505 7.594-13.974s-0.911-10.934-4.252-15.188l-25.821-33.11c-3.342-4.254-8.506-6.988-13.973-7.594-5.468-0.608-10.936 0.911-15.188 4.252-9.113 7.291-10.632 20.353-3.645 29.467zM617.56 615.832l25.516-26.427-71.385-66.222-20.050 65.917c23.998 3.951 46.477 13.367 65.919 26.733zM398.543 796.877c0 69.867 56.805 126.671 126.671 126.671 69.868 0 126.368-56.804 126.671-126.671v-46.78c0-69.865-56.803-126.671-126.671-126.671-69.865 0-126.671 56.805-126.671 126.671v46.78zM430.135 617.654c18.833-13.67 40.704-23.087 64.397-27.644l-20.351-66.828-71.385 66.222 27.339 28.25zM330.498 523.79l45.869 40.098 94.169-87.181c3.34-3.342 7.897-4.862 12.454-4.862 1.52 0 3.342 0.305 4.557 0.608 6.074 1.52 10.936 6.076 12.759 12.151l22.479 73.511 22.477-73.511c1.823-6.074 6.685-10.631 12.759-12.151 1.52-0.303 3.037-0.608 4.86-0.608 4.557 0 9.114 1.52 12.456 4.862l94.47 87.181 45.869-40.098v-134.873h-385.178v134.873zM848.118-27.548h-647.935l-74.423 267.315h799.211l-76.853-267.315zM1010.026 276.22h-973.574v76.245h273.39c0.911 0 1.52-0.303 2.431-0.303s1.823 0 2.431 0.303h416.465c0.911 0 1.518-0.303 2.429-0.303s1.823 0 2.431 0.303h273.695v-76.245h0.303z" />
<glyph unicode="&#xe910;" glyph-name="17" horiz-adv-x="922" d="M911.466 706.134c9.066 11.198 1.067 27.732-13.332 27.732h-81.068c-9.333 0-17.066-7.733-17.066-17.066s7.733-17.066 17.066-17.066h45.335l-62.933-77.335c-45.601-23.998-90.401-37.599-133.601-39.999l85.334 188.533c60.799-15.2 119.466 30.933 119.466 93.067 0 53.067-43.201 96-96 96-53.066 0-96-42.933-96-96 0-9.333 7.733-17.067 17.068-17.067 9.333 0 17.066 7.733 17.066 17.067 0 34.133 27.734 61.867 61.866 61.867 34.134 0 61.868-27.733 61.868-61.867 0-40.533-40.002-74.667-86.401-56.8-8.8 4.533-19.466 0.8-23.466-8l-29.6-65.334h-266.668c-8.8 110.934-101.599 198.401-214.665 198.401-118.934 0-215.734-96.533-215.734-215.467s96.8-215.466 215.466-215.466c9.335 0 17.068 7.733 17.068 17.066s-7.733 17.066-17.068 17.066c-99.999 0-181.333 81.334-181.333 181.334s81.333 181.333 181.333 181.333c94.134 0 172.001-72.267 180.533-164.267h-180.533c-14.399 0-22.399-16.8-13.333-27.732l337.601-415.468v-320.266h-134.4c-9.335 0-17.068-7.733-17.068-17.066 0-9.335 7.733-17.068 17.068-17.068h302.932c9.335 0 17.068 7.733 17.068 17.068 0 9.333-7.733 17.066-17.068 17.066h-134.4v320c14.934 18.399 321.602 395.999 337.601 415.734zM556.8 323.734l-305.601 376.001h430.133l-52.799-116.802c-68.534 6.134-113.066 38.668-199.201 31.468-9.333-0.801-16.265-9.066-15.466-18.399 0.801-9.335 9.066-16.267 18.401-15.466 74.666 6.4 114.934-21.334 181.332-30.134l-6.4-14.133c-4-8.534 0-18.668 8.534-22.667s18.668 0 22.667 8.534l11.733 25.866c35.199-0.266 69.599 6.134 102.932 17.334l-196.266-241.601zM100.267 733.866c-9.333 0-17.067-7.733-17.067-17.066s7.733-17.066 17.067-17.066h21.333c9.333 0 17.067 7.733 17.067 17.066s-7.733 17.066-17.067 17.066h-21.333zM232.534 810.667v21.333c0 9.333-7.733 17.067-17.068 17.067-9.333 0-17.066-7.733-17.066-17.067v-21.333c0-9.333 7.733-17.067 17.066-17.067 9.335 0 17.068 7.733 17.068 17.067z" />
<glyph unicode="&#xe911;" glyph-name="18" horiz-adv-x="1506" d="M270.917 291.177c-31.849-80.227-81.839-159.648-149.165-235.845-21.367-24.184-24.189-58.856-6.854-86.269 13.304-20.968 35.88-33.063 59.666-33.063 6.854 0 13.707 0.807 20.158 2.825 142.715 41.526 474.908 189.482 483.781 662.374 3.626 182.627-129.816 339.452-303.573 357.19-95.949 9.272-191.899-21.77-262.854-85.871-71.358-64.504-112.076-156.019-112.076-251.968 0-159.647 113.285-299.538 270.917-329.373zM176.983 800.758c45.152 40.718 101.997 62.488 162.066 62.488 8.466 0 17.335-0.403 25.802-1.21 124.17-12.498 219.313-126.186 216.894-258.822-6.047-327.355-183.433-474.51-330.179-540.22 46.765 62.488 83.452 126.994 109.254 192.301 10.079 25.401 8.466 54.025-4.435 78.21-13.707 25.401-37.896 43.543-66.52 49.59-112.076 23.383-193.108 123.364-193.108 237.455 0 68.535 29.027 134.249 80.227 180.208zM887.332-30.943c13.306-20.962 35.882-33.057 59.669-33.057 6.849 0 13.704 0.807 20.155 2.825 142.715 41.52 474.907 189.476 483.78 662.373 3.223 182.627-130.217 339.452-303.977 357.191-95.545 9.676-191.494-21.77-262.445-85.871-70.957-64.101-112.080-156.019-112.080-251.968 0-159.647 113.285-299.537 270.92-329.372-31.852-80.227-81.842-159.648-149.167-235.845-21.365-24.588-24.19-59.259-6.855-86.275zM1133.255 255.295c10.077 25.401 8.463 54.025-4.433 78.21-13.71 25.401-37.9 43.542-66.524 49.59-111.67 23.383-192.705 123.364-192.705 237.455 0 68.536 29.027 134.249 80.227 180.208 44.749 40.718 101.593 62.488 162.069 62.488 8.463 0 16.932-0.403 25.799-1.209 124.169-12.498 219.311-126.186 216.895-258.822-6.048-327.355-183.435-474.51-330.18-540.22 46.363 62.488 83.046 126.994 108.851 192.301z" />
<glyph unicode="&#xe912;" glyph-name="19" d="M512-12.8c-254.4 0-460.8 206.4-460.8 460.8s206.4 460.8 460.8 460.8c254.4 0 460.8-206.4 460.8-460.8s-206.4-460.8-460.8-460.8zM512-64c282.667 0 512 229.333 512 512s-229.333 512-512 512c-282.667 0-512-229.333-512-512s229.333-512 512-512zM648.038 448.068l-214.038 137.35v-274.467l214.038 137.116zM691.186 474.185c19.391-12.359 19.391-39.643 0-52.235l-253.065-162.301c-21.573-13.991-50.662 0.933-50.662 26.118v324.602c0 24.952 29.089 39.876 50.662 26.118l253.065-162.301z" />
<glyph unicode="&#xe913;" glyph-name="20" horiz-adv-x="1152" d="M514.148-64.064c-167.744 0-324.883 81.6-420.966 218.24-96.405 136.64-119.542 311.679-62.342 468.799 57.521 156.8 187.989 276.16 349.949 319.36s334.846 5.12 463.704-102.080c10.605-8.64 17.357-21.12 18.643-34.88 1.28-13.76-2.893-27.2-11.891-37.76-8.678-10.56-21.53-16.96-35.347-18.24-13.818-0.96-27.315 3.2-37.6 12.16-145.571 121.6-355.091 128-507.731 16.32-152.641-112-208.877-313.28-135.93-487.359s256.115-276.16 443.461-247.040c187.349 29.12 330.344 182.080 346.095 370.239 0.96 13.44 7.386 26.24 17.99 34.88 10.605 8.96 24.102 13.12 37.6 11.84s26.029-7.68 35.027-17.92c8.678-10.24 13.178-23.68 11.891-37.44-23.782-264.639-245.83-467.839-512.552-469.119zM630.156 286.336l485.876 483.839c9.965 9.6 15.43 22.72 15.75 36.48 0 13.76-5.146 26.88-15.104 36.8-9.638 9.6-23.136 15.040-36.954 15.040s-26.995-5.76-36.634-15.68l-485.882-484.16c-10.284-10.24-24.423-15.68-38.562-15.040-13.818 0.32-26.993 6.72-36.312 17.28l-133.681 169.92c-17.674 21.76-49.488 25.6-71.661 8.32s-26.351-48.96-8.998-71.36l134.645-171.199c27.636-33.28 68.126-53.12 111.508-55.040 2.25 0 4.499 0 7.070 0 40.49-0.32 79.694 16 108.937 44.8z" />
<glyph unicode="&#xe914;" glyph-name="21" d="M512 960c-40.395 0-73.143-32.747-73.143-73.143v-365.714h-365.714c-40.396 0-73.143-32.747-73.143-73.143s32.747-73.143 73.143-73.143h365.714v-365.715c0-40.397 32.748-73.143 73.143-73.143s73.143 32.746 73.143 73.143v365.715l365.714 0.001c40.397 0 73.143 32.747 73.143 73.143s-32.746 73.143-73.143 73.143l-365.714-0.001v365.714c0 40.396-32.748 73.143-73.143 73.143z" />
<glyph unicode="&#xe915;" glyph-name="22" horiz-adv-x="7168" d="M7168 448c0-282.77-229.23-512-512-512h-6144c-282.77 0-512 229.23-512 512s229.23 512 512 512h6144c282.77 0 512-229.23 512-512z" />
<glyph unicode="&#xe916;" glyph-name="23" horiz-adv-x="1365" d="M120.666 597.979l482.718-482.718-120.68-120.68-482.718 482.718 120.68 120.68zM1206.835 960l120.68-120.68-844.757-844.757-120.68 120.68 844.757 844.757z" />
<glyph unicode="&#xe917;" glyph-name="24" d="M1011.852 6.954l-214.011 214.011c65.001 78.201 104.206 178.609 104.206 288.013-0.2 248.612-202.412 451.022-451.024 451.022s-451.022-202.41-451.022-451.022c0-248.612 202.41-451.020 451.022-451.020 109.404 0 209.812 39.201 288.013 104.201l214.011-214.007c8.201-8.201 18.8-12.204 29.403-12.204 10.598 0 21.201 4.003 29.403 12.204 16.198 16.198 16.198 42.598 0 58.801zM83.204 508.978c0 202.81 165.008 367.618 367.618 367.618s367.619-165.008 367.619-367.618c0-202.611-165.008-367.62-367.619-367.62s-367.618 165.008-367.618 367.62z" />
<glyph unicode="&#xe918;" glyph-name="25" horiz-adv-x="597" d="M482.703 567.804l-392.194 392.194-90.51-90.51 392.194-392.194-392.076-392.080 90.51-90.505 482.719 482.717-90.511 90.51-0.132-0.132z" />
<glyph unicode="&#xe919;" glyph-name="26" horiz-adv-x="1451" d="M1179.874 604.993c31.834 80.19 81.805 159.573 149.099 235.733 21.355 24.178 24.175 58.833 6.848 86.234-13.295 20.954-35.861 33.043-59.635 33.043-6.852 0-13.705-0.806-20.151-2.821-142.647-41.505-474.688-189.393-483.554-662.070-3.627-182.541 129.754-339.294 303.433-357.022 95.902-9.271 191.808 21.76 262.729 85.828 71.326 64.474 112.026 155.947 112.026 251.853 0 159.573-113.233 299.402-270.793 329.221zM1273.766 95.646c-45.133-40.695-101.952-62.455-161.993-62.455-8.461 0-17.327 0.401-25.788 1.207-124.113 12.493-219.213 126.127-216.794 258.701 6.042 327.207 183.347 474.289 330.027 539.971-46.746-62.459-83.413-126.933-109.205-192.213-10.074-25.387-8.461-53.997 4.433-78.175 13.7-25.387 37.879-43.518 66.487-49.564 112.026-23.373 193.020-123.307 193.020-237.346 0-68.501-29.013-134.187-80.188-180.126zM563.823 926.967c-13.299 20.954-35.866 33.043-59.639 33.043-6.852 0-13.7-0.806-20.147-2.821-142.65-41.505-474.691-189.393-483.556-662.068-3.224-182.541 130.157-339.294 303.834-357.026 95.502-9.668 191.409 21.76 262.329 85.833s112.021 155.947 112.021 251.853c0 159.573-113.229 299.4-270.789 329.219 31.834 80.189 81.801 159.573 149.095 235.733 21.359 24.581 24.179 59.235 6.852 86.234zM318.015 640.863c-10.074-25.387-8.462-53.997 4.433-78.175 13.701-25.387 37.879-43.52 66.489-49.566 111.621-23.369 192.615-123.307 192.615-237.342 0-68.506-29.013-134.187-80.188-180.126-44.727-40.7-101.547-62.46-161.991-62.46-8.463 0-16.925 0.405-25.79 1.207-124.113 12.493-219.212 126.131-216.794 258.705 6.045 327.205 183.348 474.287 330.028 539.969-46.342-62.459-83.012-126.933-108.801-192.213z" />
<glyph unicode="&#xe91a;" glyph-name="27" horiz-adv-x="780" d="M369.713 960c-213.528 0-369.713-212.407-369.713-387.462 0-84.602 9.118-164.913 59.685-232.302l286.135-385.609c0.731-0.926 1.853-1.317 2.633-2.194 2.855-3.277 6.416-5.861 10.414-7.563s8.33-2.477 12.67-2.267c4.34 0.21 8.577 1.404 12.39 3.486s7.107 5.003 9.63 8.538c92.904 124.016 207.599 258.438 295.858 385.609 66.394 107.764 67.613 151.259 67.613 232.302 0 175.055-173.787 387.462-387.316 387.462zM369.615 289.621c-155.648 0-263.802 127.171-263.802 282.77 0 155.697 108.203 282.917 263.802 282.917s282.77-127.22 282.77-282.819c0-155.697-127.171-282.868-282.77-282.868z" />
<glyph unicode="&#xe91b;" glyph-name="28" d="M970.53 261.092l-103.043 84.417c-67.226 54.972-171.247 49.818-232.585-11.531l-4.17-4.17c-10.308-10.308-26.988-10.308-37.046 0l-198.974 199.018c-10.059 10.061-10.304 26.258-0.491 36.565 0.246 0.245 0.246 0.491 0.491 0.491l-0.491-0.491c0.246 0.245 0.246 0.245 0.491 0.491 60.845 61.595 66.733 166.136 13.494 233.622l-83.662 105.768c-53.975 67.976-147.205 73.375-208.54 12.025l-15.457-15.461c-108.441-108.712-134.202-304.788-52.503-435.095 0 0 48.087-111.411 210.013-273.38 161.926-161.963 273.311-210.062 273.311-210.062 131.501-79.508 326.306-55.95 434.992 52.764l14.717 14.723c61.093 61.104 56.434 155.341-10.547 210.307zM906.985 124.649l-14.717-14.723c-74.587-74.604-216.394-91.779-306.677-37.057l-6.138 3.681-6.622 2.947c-8.096 3.436-28.46 14.478-59.127 35.095-54.466 36.562-115.802 86.869-181.799 152.883s-116.292 127.117-152.848 181.596c-20.609 30.675-31.649 51.044-35.084 59.142l-3.189 7.362-4.171 6.871c-54.956 87.608-37.047 230.186 38.028 305.524l15.457 15.461c16.928 16.932 37.292 15.951 52.258-2.945l83.662-105.768c20.609-26.012 17.91-71.411-5.889-95.216-50.54-51.289-50.295-133.744 0.491-184.541l198.972-199.022c51.032-51.041 133.959-51.041 185.233 0l4.17 4.176c23.307 23.313 66.736 25.276 92.251 4.415l103.043-84.417c19.137-15.707 20.116-38.036 2.697-55.461z" />
<glyph unicode="&#xe91c;" glyph-name="29" horiz-adv-x="1317" d="M1150.208 960h-983.847c-92.124 0-166.361-88.697-166.361-198.768v-626.466c0-110.065 74.236-198.766 166.361-198.766h983.847c92.131 0 166.363 88.7 166.363 198.766v626.466c0 110.070-74.233 198.768-166.363 198.768zM1124.272 831.762l-465.986-301.595-465.987 301.595h931.973zM1150.208 64.234h-983.847c-32.199 0-59.031 32.066-59.031 70.532v613.642l517.863-350.753c9.839-8.549 21.466-13.893 33.093-13.893s23.254 4.275 33.093 13.893l517.862 350.753v-613.642c0-39.541-26.829-70.532-59.034-70.532z" />
</font>
</defs>
</svg>
